foobar2000 1.1.5 / Dynamic Range Meter 1.1.0

————————————————– ——————————
Analyzed: Schiller / Morgenstund
————————————————– ——————————

DR Peak RMS Duration Track
————————————————– ——————————
DR7 -10.40 dB -21.19 dB 7:04 01-Willkommen – Harmonia
DR6 -10.40dB -18.55dB 7:28 02-Universe
DR7 -7.90 dB -16.46 dB 3:50 03-Dreamcatcher
DR7 -10.40 dB -20.22 dB 6:15 04-Baum des Lebens
DR7 -9.40 dB -18.37 dB 5:43 05-Avalanche
DR7 -12.24 dB -23.08 dB 6:30 06-Das goldene Tor – Berlin Tehran
DR6 -9.40dB -17.93dB 5:11 07-In Between
DR6 -10.40 dB -18.27 dB 5:12 08-Morgenstund
DR7 -10.10 dB -19.92 dB 7:00 09-Shangri La
DR7 -10.40dB -19.45dB 4:40 10-Lichtjahre
DR7 -10.36 dB -20.76 dB 6:06 11-New Day
DR6 -10.40dB -17.73dB 4:31 12-Over You
DR9 -10.40 dB -22.28 dB 5:39 13-Morgenstern
DR7 -10.56dB -21.18dB 9:13 14-Love
————————————————– ——————————

Number of tracks: 14
Official DR value: DR7

Samplerate: 48000Hz
Channels: 2
Bits per sample: 24
Bitrate: 1367kbps
Codec: FLAC
================================================= ==============================

foobar2000 1.1.5 / Dynamic Range Meter 1.1.0

————————————————– ——————————
Analyzed: Schiller / Morgenstund (5.1)
————————————————– ——————————

DR Peak RMS Duration Track
————————————————– ——————————
DR13 -6.56 dB -26.42 dB 7:04 01-Willkommen – Harmonia
DR11 -7.90 dB -22.82 dB 7:28 02-Universe
DR10 -8.65dB -20.81dB 3:50 03-Dreamcatcher
DR12 -4.38 dB -23.14 dB 6:15 04-Baum des Lebens
DR12 -5.08 dB -23.44 dB 5:43 05-Avalanche
DR12 -6.85 dB -25.78 dB 6:30 06-Das goldene Tor – Berlin Tehran
DR12 -5.92dB -22.66dB 5:11 07-In Between
DR12 -6.25 dB -23.54 dB 5:12 08-Morgenstund
DR14 -6.78dB -26.62dB 7:00 09-Shangri La
DR15 -5.05dB -23.98dB 4:40 10-Lichtjahre
DR13 -3.66 dB -25.19 dB 6:06 11-New Day
DR12 -4.94dB -22.38dB 4:31 12-Over You
DR11 -7.20 dB -24.90 dB 5:39 13-Morgenstern
DR11 -4.87dB -24.11dB 9:13 14-Love
————————————————– ——————————

Number of tracks: 14
Official DR value: DR12

Samplerate: 48000Hz
Channels: 6
Bits per sample: 24
Bitrate: 3311kbps
Codec: FLAC
================================================= ==============================

foobar2000 1.1.5 / Dynamic Range Meter 1.1.0

————————————————– ——————————
Analyzed: Schiller / Morgenstund (7.1)
————————————————– ——————————

DR Peak RMS Duration Track
————————————————– ——————————
DR14 -6.38 dB -27.12 dB 7:04 01-Willkommen – Harmonia
DR12 -7.64 dB -23.80 dB 7:28 02-Universe
DR10 -9.00 dB -21.78 dB 3:50 03-Dreamcatcher
DR12 -4.39 dB -23.95 dB 6:15 04-Baum des Lebens
DR12 -5.07 dB -24.48 dB 5:43 05-Avalanche
DR13 -6.23 dB -26.43 dB 6:30 06-Das goldene Tor – Berlin Tehran
DR13 -5.92 dB -23.62 dB 5:11 07-In Between
DR12 -6.24 dB -24.19 dB 5:12 08-Morgenstund
DR13 -5.86dB -27.20dB 7:00 09-Shangri La
DR15 -4.92dB -25.01dB 4:40 10-Lichtjahre
DR13 -4.69 dB -25.91 dB 6:06 11-New Day
DR12 -3.69dB -23.19dB 4:31 12-Over You
DR11 -6.07 dB -25.46 dB 5:39 13-Morgenstern
DR11 -6.85dB -24.97dB 9:13 14-Love
————————————————– ——————————

Number of tracks: 14
Official DR value: DR12

Samplerate: 48000Hz
Channels: 8
Bits per sample: 24
Bitrate: 3081kbps
Codec: FLAC
================================================= ==============================

Leave a Reply

Your email address will not be published.