x264 info: frame I:1053 Avg QP:18.48 size: 75839
x264 info: frame P:31241 Avg QP:20.51 size: 26294
x264 info: frame B:94523 Avg QP:22.05 size: 9431
x264 info: consecutive B-frames: 3.7% 5.2% 13.7% 18.3% 15.8% 35.2% 4.2% 1.5% 1.2% 0.6% 0.5%

General
Unique ID : 104748096726302873056465276862308911873 (0x4ECDBFE6758300DF9B27D285FFA18B01)
Complete name : D:Wyrmwood.Apocalypse.2021.DUB.x264.mkv
Format : Matroska
Format version : Version 4
File size : 2.18 GiB
Duration : 1 h 28 min
Overall bit rate : 3548 kb/s
Encoded date : UTC 2022-04-20 17:24:17
Writing application : mkvmerge v63.0.0 (‘Everything’) 64-bit
Writing library : libebml v1.4.2 + libmatroska v1.6.4
Cover : Yes
Attachments : cover.jpg / cover2.jpg

video
ID : 1
Format : AVC
Format/Info : Advanced Video Codec
Format profile : High@L4.1
Format settings : CABAC / 12 Ref Frames
Format settings, CABAC : Yes
Format settings, Reference : 12 frames
Codec ID : V_MPEG4/ISO/AVC
Duration : 1 h 28 min
Bit rate : 2713 kb/s
Width : 1046 pixels
Height : 438 pixels
Display aspect ratio: 2.40:1
Frame rate mode : Constant
Frame rate : 24.000 FPS
Color space : YUV
Chroma subsampling : 4:2:0
Bit depth : 8 bits
Scan type : Progressive
Bits/(Pixel*Frame) : 0.247
Stream size : 1.67 GiB (76%)
Title : -=DoMiNo=-
Writing library : x264 core 163 r3060 5db6aa6
Encoding settings : cabac=1 / ref=12 / deblock=1:-2:-2 / analyse=0x3:0x133 / me=umh / subme=10 / psy=1 / psy_rd=1.00:0.05 / mixed_ref=1 / me_range =32 / chroma_me=1 / trellis=2 / 8x8dct=1 / cqm=0 / deadzone=21,11 / fast_pskip=0 / chroma_qp_offset=-3 / threads=17 / lookahead_threads=3 / sliced_threads=0 / nr=0 / decimate=0 / interlaced=0 / bluray_compat=0 / constrained_intra=0 / bframes=10 / b_pyramid=2 / b_adapt=2 / b_bias=0 / direct=3 / weightb=1 / open_gop=0 / weightp=2 / keyint= 240 / keyint_min=24 / scenecut=40 / intra_refresh=0 / rc_lookahead=80 / rc=2pass / mbtree=0 / bitrate=2713 / ratetol=1.0 / qcomp=0.60 / qpmin=0 / qpmax=69 / qpstep=4 / cplxblur=20.0 / qblur=0.5 / vbv_maxrate=50000 / vbv_bufsize=62500 / nal_hrd=none / filler=0 / ip_ratio=1.40 / pb_ratio=1.30 / aq=3:1.00
Language : English
Default : Yes
Forced : No
Color range : Limited
Color primaries : BT.709
Matrix coefficients : BT.709

Audio #1
ID : 2
Format : AC-3
Format/Info : Audio Coding 3
Commercial name : Dolby Digital
Codec ID : A_AC3
Duration : 1 h 28 min
Bit rate mode : Constant
Bit rate : 384 kb/s
Channel(s) : 6 channels
Channel layout : LRC LFE Ls Rs
Sampling rate: 48.0 kHz
Frame rate : 31.250 FPS (1536 SPF)
Compression mode: Lossy
Stream size : 242 MiB (11%)
Title : AVO_Esarev
Language : English
Service kind : Complete Main
Default : Yes
Forced : No

Audio #2
ID : 3
Format : AC-3
Format/Info : Audio Coding 3
Commercial name : Dolby Digital
Codec ID : A_AC3
Duration : 1 h 28 min
Bit rate mode : Constant
Bit rate : 448 kb/s
Channel(s) : 6 channels
Channel layout : LRC LFE Ls Rs
Sampling rate: 48.0 kHz
Frame rate : 31.250 FPS (1536 SPF)
Compression mode: Lossy
Stream size : 282 MiB (13%)
Language : English
Service kind : Complete Main
Default : No
Forced : No

Text #1
ID : 4
Format : UTF-8
Codec ID : S_TEXT/UTF8
Codec ID/Info : UTF-8 Plain Text
Duration : 1 h 22 min
Bit rate : 24b/s
Count of elements : 601
Stream size : 14.9 KiB (0%)
Language : English
Default : No
Forced : No

Text #2
ID : 5
Format : UTF-8
Codec ID : S_TEXT/UTF8
Codec ID/Info : UTF-8 Plain Text
Duration : 1 h 23 min
Bit rate : 27b/s
Count of elements : 745
Stream size : 17.1 KiB (0%)
Title : SDH
Language : English
Default : No
Forced : No

Menu
00:00:00.000 : en:Chapter 01
00:07:19.167 : en:Chapter 02
00:14:16.292 : en:Chapter 03
00:19:56.958 : en:Chapter 04
00:26:26.875 : en:Chapter 05
00:33:42.958 : en:Chapter 06
00:41:14.292 : en:Chapter 07
00:48:36.042 : en:Chapter 08
00:57:50.708 : en:Chapter 09
01:03:56.667 : en:Chapter 10
01:14:59.708 : en:Chapter 11
01:24:17.625 : en:Chapter 12

Leave a Reply

Your email address will not be published.