x264 [info]: frame I:1883 Avg QP:17.57 size: 61208
x264 [info]: frame P:49027 Avg QP:19.01 size: 22889
x264 [info]: frame B:125021 Avg QP:20.93 size: 7228
x264 [info]: consecutive B-frames: 4.9% 5.1% 16.7% 38.5% 17.2% 14.8% 1.5% 0.7% 0.3% 0.2% 0.1%

General
Unique ID : 57867487868478585305368909964000208025 (0x2B88DF6DCE0103936DEA2F1F8619A499)
Complete name : L:Sonic.the.Hedgehog-2.2022.3xMVO.WEB-DLRip.x264.mkv
Format : Matroska
Format version : Version 4
File size : 2.93 GiB
Duration : 2 h 2 min
Overall bit rate : 3425 kb/s
Encoded date : UTC 2022-05-12 19:28:58
Writing application : mkvmerge v63.0.0 (‘Everything’) 64-bit
Writing library : libebml v1.4.2 + libmatroska v1.6.4
Cover : Yes
Attachments : cover.jpg / cover2.jpg

video
ID : 1
Format : AVC
Format/Info : Advanced Video Codec
Format profile : High@L4.1
Format settings : CABAC / 10 Ref Frames
Format settings, CABAC : Yes
Format settings, Reference : 10 frames
Codec ID : V_MPEG4/ISO/AVC
Duration : 2 h 2 min
Bit rate : 2334 kb/s
Width : 1024 pixels
Height : 428px
Display aspect ratio: 2.40:1
Frame rate mode : Constant
Frame rate : 23.976 (24000/1001) FPS
Color space : YUV
Chroma subsampling : 4:2:0
Bit depth : 8 bits
Scan type : Progressive
Bits/(Pixel*Frame) : 0.222
Stream size : 1.99 GiB (68%)
Title : -=DoMiNo=-
Writing library : x264 core 164 r3094 bfc87b7
Encoding settings : cabac=1 / ref=10 / deblock=1:-2:-2 / analyse=0x3:0x133 / me=umh / subme=10 / psy=1 / psy_rd=1.07:0.20 / mixed_ref=1 / me_range =32 / chroma_me=1 / trellis=2 / 8x8dct=1 / cqm=0 / deadzone=21,11 / fast_pskip=0 / chroma_qp_offset=-3 / threads=17 / lookahead_threads=3 / sliced_threads=0 / nr=0 / decimate=0 / interlaced=0 / bluray_compat=0 / constrained_intra=0 / bframes=10 / b_pyramid=2 / b_adapt=2 / b_bias=0 / direct=3 / weightb=1 / open_gop=0 / weightp=2 / keyint= 250 / keyint_min=23 / scenecut=40 / intra_refresh=0 / rc_lookahead=60 / rc=crf / mbtree=0 / crf=18.0 / qcomp=0.60 / qpmin=0 / qpmax=69 / qpstep=4 / vbv_maxrate=50000 / vbv_bufsize=62500 / crf_max=0.0 / nal_hrd=none / filler=0 / ip_ratio=1.35 / pb_ratio=1.25 / aq=2:1.00
Language : English
Default : Yes
Forced : No
Color range : Limited
Color primaries : BT.709
Transfer characteristics : BT.709
Matrix coefficients : BT.709

Audio #1
ID : 2
Format : AC-3
Format/Info : Audio Coding 3
Commercial name : Dolby Digital
Codec ID : A_AC3
Duration : 2 h 2 min
Bit rate mode : Constant
Bit rate : 448 kb/s
Channel(s) : 6 channels
Channel layout : LRC LFE Ls Rs
Sampling rate: 48.0 kHz
Frame rate : 31.250 FPS (1536 SPF)
Compression mode: Lossy
Stream size : 392 MiB (13%)
Title : MVO_HDRezka Studio
Language : Russian
Service kind : Complete Main
Default : Yes
Forced : No

Audio #2
ID : 3
Format : AC-3
Format/Info : Audio Coding 3
Commercial name : Dolby Digital
Codec ID : A_AC3
Duration : 2 h 2 min
Bit rate mode : Constant
Bit rate : 192 kb/s
Channel(s) : 2 channels
Channel layout : LR
Sampling rate: 48.0 kHz
Frame rate : 31.250 FPS (1536 SPF)
Compression mode: Lossy
Stream size : 168 MiB (6%)
Title : MVO_Jasker
Language : Russian
Service kind : Complete Main
Default : No
Forced : No

Audio #3
ID : 4
Format : AC-3
Format/Info : Audio Coding 3
Commercial name : Dolby Digital
Codec ID : A_AC3
Duration : 2 h 2 min
Bit rate mode : Constant
Bit rate : 192 kb/s
Channel(s) : 2 channels
Channel layout : LR
Sampling rate: 48.0 kHz
Frame rate : 31.250 FPS (1536 SPF)
Compression mode: Lossy
Stream size : 168 MiB (6%)
Title : MVO_TVShows
Language : Russian
Service kind : Complete Main
Default : No
Forced : No

Audio #4
ID : 5
Format : E-AC-3
Format/Info : Enhanced AC-3
Commercial name : Dolby Digital Plus
Codec ID : A_EAC3
Duration : 2 h 2 min
Bit rate mode : Constant
Bit rate : 256 kb/s
Channel(s) : 6 channels
Channel layout : LRC LFE Ls Rs
Sampling rate: 48.0 kHz
Frame rate : 31.250 FPS (1536 SPF)
Compression mode: Lossy
Stream size : 224 MiB (7%)
Language : English
Service kind : Complete Main
Default : No
Forced : No

Text #1
ID : 6
Format : UTF-8
Codec ID : S_TEXT/UTF8
Codec ID/Info : UTF-8 Plain Text
Duration : 1 h 51 min
Bitrate : 1b/s
Count of elements : 33
Stream size : 1.34 KiB (0%)
Title : Forced_HDRezka Studio
Language : English
Default : No
Forced : No

Text #2
ID : 7
Format : UTF-8
Codec ID : S_TEXT/UTF8
Codec ID/Info : UTF-8 Plain Text
Duration : 1 h 53 min
Bit rate : 91b/s
Count of elements : 1714
Stream size : 75.5 KiB (0%)
Title : FOCS
Language : Russian
Default : No
Forced : No

Text #3
ID : 8
Format : UTF-8
Codec ID : S_TEXT/UTF8
Codec ID/Info : UTF-8 Plain Text
Duration : 1 h 52 min
Bit rate : 54b/s
Count of elements : 1375
Stream size : 44.5 KiB (0%)
Title : English (Full)
Language : English
Default : No
Forced : No

Leave a Reply

Your email address will not be published.