General
Unique ID : 54596261085711097047581480788299813197 (0x2912DB7F116F88750AA60555BB4F114D)
Complete name : porvaliparusHotel.Fear.1977.BDRemux.1080p.mkv
Format : Matroska
Format version : Version 4
File size : 25.4 GiB
Duration : 1 h 39 min
Overall bit rate mode : Variable
Overall bit rate : 36.6 Mb/s
Movie name : Hotel Fear (1977)
Encoded date : UTC 2022-05-09 21:51:47
Writing application : mkvmerge v66.0.0 (‘Josie’) 64-bit
Writing library : libebml v1.4.2 + libmatroska v1.6.4
Cover : Yes
Attachments : Cover.jpg

video
ID : 1
Format : AVC
Format/Info : Advanced Video Codec
Format profile : High@L4.1
Format settings : CABAC / 4 Ref Frames
Format settings, CABAC : Yes
Format settings, Reference frames : 4 frames
Codec ID : V_MPEG4/ISO/AVC
Duration : 1 h 39 min
Bit rate mode : Constant
Bit rate : 36.0 Mb/s
Width : 1920 pixels
Height : 1080px
Display aspect ratio : 16:9
Frame rate mode : Constant
Frame rate : 24.000 FPS
Standard : Component
Color space : YUV
Chroma subsampling : 4:2:0
Bit depth : 8 bits
Scan type : Progressive
Bits/(Pixel*Frame) : 0.723
Stream size : 24.0 GiB (95%)
Title : Hotel.Fear.1977.BDRemux.1080p
Writing library : x264 core 155
Encoding settings : cabac=1 / ref=4 / deblock=1:0:0 / analyse=0x3:0x133 / me=umh / subme=9 / psy=1 / psy_rd=1.00:0.00 / mixed_ref=1 / me_range=24 / chroma_me=1 / trellis=2 / 8x8dct=1 / cqm=1 / deadzone=21,11 / fast_pskip=1 / chroma_qp_offset=-2 / threads=34 / lookahead_threads=2 / sliced_threads=0 / slices=4 / nr= 0 / decimate=1 / interlaced=0 / minigop=1 / stitchable=1 / constrained_intra=0 / bframes=2 / b_pyramid=0 / b_adapt=2 / b_bias=0 / direct=3 / weightb=1 / open_gop=1 / weightp=2 / keyint=24 / keyint_min=1 / scenecut=40 / intra_refresh=0 / rc_lookahead=24 / rc=cbr / mbtree=1 / bitrate=36000 / ratetol=1.0 / qcomp=0.60 / qpmin=3 / qpmax= 69 / qpstep=4 / vbv_maxrate=36000 / vbv_bufsize=30000 / nal_hrd=cbr / filler=1 / ip_ratio=1.40 / aq=1:1.00
Default : Yes
Forced : No
Color range : Limited
Color primaries : BT.709
Transfer characteristics : BT.709
Matrix coefficients : BT.709

Audio #1
ID : 2
Format : AC-3
Format/Info : Audio Coding 3
Commercial name : Dolby Digital
Codec ID : A_AC3
Duration : 1 h 39 min
Bit rate mode : Constant
Bit rate : 192 kb/s
Channel(s) : 2 channels
Channel layout : LR
Sampling rate: 48.0 kHz
Frame rate : 31.250 FPS (1536 SPF)
Compression mode: Lossy
Stream size : 136 MiB (1%)
Title : VO [M. Biryukov]
Language : English
Service kind : Complete Main
Default : Yes
Forced : No

Audio #2
ID : 3
Format : DTS XLL
Format/Info : Digital Theater Systems
Commercial name : DTS-HD Master Audio
Codec ID : A_DTS
Duration : 1 h 39 min
Bit rate mode : Variable
Bit rate : 1580 kb/s
Channel(s) : 2 channels
Channel layout : LR
Sampling rate: 48.0 kHz
Frame rate : 93.750 FPS (512 SPF)
Bit depth : 16 bits
Compression mode: Lossless
Stream size : 1.09 GiB (4%)
Language : Italian
Default : No
Forced : No

Audio #3
ID : 4
Format : AC-3
Format/Info : Audio Coding 3
Commercial name : Dolby Digital
Codec ID : A_AC3
Duration : 1 h 39 min
Bit rate mode : Constant
Bit rate : 192 kb/s
Channel(s) : 2 channels
Channel layout : LR
Sampling rate: 48.0 kHz
Frame rate : 31.250 FPS (1536 SPF)
Compression mode: Lossy
Stream size : 136 MiB (1%)
Title : Commentary by Rachael Nisbit and Peter Jilmstad of the Fragments of Fear
Language : English
Service kind : Complete Main
Default : No
Forced : No

Text #1
ID : 5
Format : UTF-8
Codec ID : S_TEXT/UTF8
Codec ID/Info : UTF-8 Plain Text
Duration : 1 h 37 min
Bit rate : 38b/s
Count of elements : 394
Stream size : 27.5 KiB (0%)
Title : ojo
Language : Russian
Default : No
Forced : No

Text #2
ID : 6
Format : UTF-8
Codec ID : S_TEXT/UTF8
Codec ID/Info : UTF-8 Plain Text
Duration : 1 h 35 min
Bit rate : 22b/s
Count of elements : 523
Stream size : 15.6 KiB (0%)
Language : English
Default : No
Forced : No

Text #3
ID : 7
Format : PGS
Codec ID : S_HDMV/PGS
Codec ID/Info : Picture based subtitle format used on BDs/HD-DVDs
Duration : 1 h 35 min
Bit rate : 14.6 kb/s
Count of elements : 1046
Stream size : 9.98 MiB (0%)
Language : English
Default : No
Forced : No

Menu
00:00:00.000 : en:Chapter 01
00:08:57.625 : en:Chapter 02
00:16:03.875 : en:Chapter 03
00:24:07.917 : en:Chapter 04
00:35:32.250 : en:Chapter 05
00:49:56.167 : en:Chapter 06
00:58:55.500 : en:Chapter 07
01:06:33.542 : en:Chapter 08
01:18:08.042 : en:Chapter 09
01:24:55.375 : en:Chapter 10

Leave a Reply

Your email address will not be published.