General
Unique ID : 241245770798501097320561368442507533857 (0xB57E3ED22023743D60B0DE4828669E21)
Complete name : /Volumes/Promise Pegasus/Uncharted.2022.BDRemux.1080p.3xRus.2xUkr.pk.mkv
Format : Matroska
Format version : Version 4
File size : 35.0 GiB
Duration : 1 h 56 min
Overall bit rate mode : Variable
Overall bit rate : 43.2 Mb/s
Movie name : Uncharted 2022 BDRemux 1080p pk
Encoded date : UTC 2022-05-09 13:23:28
Writing application : mkvmerge v53.0.0 (‘Fool’s Gold’) 64-bit
Writing library : libebml v1.4.1 + libmatroska v1.6.2
Attachments : Poster.jpg

video
ID : 1
Format : AVC
Format/Info : Advanced Video Codec
Format profile : High@L4.1
Format settings : CABAC / 2 Ref Frames
Format settings, CABAC : Yes
Format settings, Reference frames : 2 frames
Codec ID : V_MPEG4/ISO/AVC
Duration : 1 h 55 min
Bit rate mode : Variable
Bit rate : 24.8 Mb/s
Width : 1920 pixels
Height : 1080px
Display aspect ratio : 16:9
Frame rate mode : Constant
Frame rate : 23.976 (24000/1001) FPS
Color space : YUV
Chroma subsampling : 4:2:0
Bit depth : 8 bits
Scan type : Progressive
Bits/(Pixel*Frame) : 0.499
Stream size : 20.1 GiB (57%)
Language : English
Default : Yes
Forced : No

Audio #1
ID : 2
Format : MLP FBA
Format/Info : Meridian Lossless Packing FBA
Commercial name : Dolby TrueHD
Codec ID : A_TRUEHD
Duration : 1 h 55 min
Bit rate mode : Variable
Bit rate : 4227 kb/s
Maximum bit rate : 5 877 kb/s
Channel(s) : 8 channels
Channel layout : LRC LFE Ls Rs Lb Rb
Sampling rate: 48.0 kHz
Frame rate : 1200.000 FPS (40 SPF)
Compression mode: Lossless
Stream size : 3.42 GiB (10%)
Title : Russian MVO
Language : English
Default : Yes
Forced : No

Audio #2
ID : 3
Format : MLP FBA
Format/Info : Meridian Lossless Packing FBA
Commercial name : Dolby TrueHD
Codec ID : A_TRUEHD
Duration : 1 h 55 min
Bit rate mode : Variable
Bit rate : 4243 kb/s
Maximum bit rate : 5 877 kb/s
Channel(s) : 8 channels
Channel layout : LRC LFE Ls Rs Lb Rb
Sampling rate: 48.0 kHz
Frame rate : 1200.000 FPS (40 SPF)
Compression mode: Lossless
Stream size : 3.43 GiB (10%)
Title : Russian MVO Jaskier
Language : English
Default : No
Forced : No

Audio #3
ID : 4
Format : AC-3
Format/Info : Audio Coding 3
Commercial name : Dolby Digital
Codec ID : A_AC3
Duration : 1 h 56 min
Bit rate mode : Constant
Bit rate : 192 kb/s
Channel(s) : 2 channels
Channel layout : LR
Sampling rate: 48.0 kHz
Frame rate : 31.250 FPS (1536 SPF)
Compression mode: Lossy
Stream size : 159 MiB (0%)
Title : Russian MVO TVShows
Language : English
Service kind : Complete Main
Default : No
Forced : No

Audio #4
ID : 5
ID in the original source medium : 4359 (0x1107)
Format : AC-3
Format/Info : Audio Coding 3
Commercial name : Dolby Digital
Codec ID : A_AC3
Duration : 1 h 55 min
Bit rate mode : Constant
Bit rate : 384 kb/s
Channel(s) : 6 channels
Channel layout : LRC LFE Ls Rs
Sampling rate: 48.0 kHz
Frame rate : 31.250 FPS (1536 SPF)
Compression mode: Lossy
Stream size : 318 MiB (1%)
Title : Ukrainian Dub Blu-Ray CEE/LeDoyen
Language : Ukrainian
Service kind : Complete Main
Default : No
Forced : No
Original source medium : Blu-ray

Audio #5
ID : 6
Format : MLP FBA
Format/Info : Meridian Lossless Packing FBA
Commercial name : Dolby TrueHD
Codec ID : A_TRUEHD
Duration : 1 h 55 min
Bit rate mode : Variable
Bit rate : 4245 kb/s
Maximum bit rate : 5883 kb/s
Channel(s) : 8 channels
Channel layout : LRC LFE Ls Rs Lb Rb
Sampling rate: 48.0 kHz
Frame rate : 1200.000 FPS (40 SPF)
Compression mode: Lossless
Stream size : 3.44 GiB (10%)
Title : Ukrainian MVO HDRezka Studio
Language : Ukrainian
Default : No
Forced : No

Audio #6
ID : 7
ID in the original source medium : 4352 (0x1100)
Format : MLP FBA 16-ch
Format/Info : Meridian Lossless Packing FBA with 16-channel presentation
Commercial name : Dolby TrueHD with Dolby Atmos
Codec ID : A_TRUEHD
Duration : 1 h 55 min
Bit rate mode : Variable
Bit rate : 4081 kb/s
Maximum bit rate : 6975 kb/s
Channel(s) : 8 channels
Channel layout : LRC LFE Ls Rs Lb Rb
Sampling rate: 48.0 kHz
Frame rate : 1200.000 FPS (40 SPF)
Compression mode: Lossless
Stream size : 3.30 GiB (9%)
Title : English Original True HD
Language : English
Default : No
Forced : No
Original source medium : Blu-ray
Number of dynamic objects : 11
Bed channel count : 1 channel
Bed channel configuration : LFE

Audio #7
ID : 8
ID in the original source medium : 4352 (0x1100)
Format : AC-3
Format/Info : Audio Coding 3
Commercial name : Dolby Digital
Codec ID : A_AC3
Duration : 1 h 55 min
Bit rate mode : Constant
Bit rate : 640 kb/s
Channel(s) : 6 channels
Channel layout : LRC LFE Ls Rs
Sampling rate: 48.0 kHz
Frame rate : 31.250 FPS (1536 SPF)
Compression mode: Lossy
Stream size : 530 MiB (1%)
Title : English Original
Language : English
Service kind : Complete Main
Default : No
Forced : No
Original source medium : Blu-ray

Audio #8
ID : 9
ID in the original source medium : 4360 (0x1108)
Format : AC-3
Format/Info : Audio Coding 3
Commercial name : Dolby Digital
Format settings : Dolby Surround
Codec ID : A_AC3
Duration : 1 h 55 min
Bit rate mode : Constant
Bit rate : 192 kb/s
Channel(s) : 2 channels
Channel layout : LR
Sampling rate: 48.0 kHz
Frame rate : 31.250 FPS (1536 SPF)
Compression mode: Lossy
Stream size : 159 MiB (0%)
Title : Commentary by Director Ruben Fleischer
Language : English
Service kind : Complete Main
Default : No
Forced : No
Original source medium : Blu-ray

Text #1
ID : 10
Format : UTF-8
Codec ID : S_TEXT/UTF8
Codec ID/Info : UTF-8 Plain Text
Duration : 1 h 42 min
Bit rate : 3b/s
Count of elements : 70
Stream size : 2.98 KiB (0%)
Title : Russian forced HDRezka
Language : Russian
Default : Yes
Forced : No

Text #2
ID : 11
Format : UTF-8
Codec ID : S_TEXT/UTF8
Codec ID/Info : UTF-8 Plain Text
Duration : 1 h 47 min
Bit rate : 83b/s
Count of elements : 1343
Stream size : 65.5 KiB (0%)
Title : Russian full MENINSUB
Language : English
Default : No
Forced : No

Text #3
ID : 12
Format : UTF-8
Codec ID : S_TEXT/UTF8
Codec ID/Info : UTF-8 Plain Text
Duration : 1 h 24 min
Bitrate : 2b/s
Count of elements : 35
Stream size : 1.48 KiB (0%)
Title : Ukrainian forced Blu-Ray CEE
Language : Ukrainian
Default : No
Forced : No

Text #4
ID : 13
Format : UTF-8
Codec ID : S_TEXT/UTF8
Codec ID/Info : UTF-8 Plain Text
Duration : 1 h 42 min
Bitrate : 2b/s
Count of elements : 52
Stream size : 2.12 KiB (0%)
Title : Ukrainian forced HDRezka
Language : Ukrainian
Default : No
Forced : No

Text #5
ID : 14
Format : UTF-8
Codec ID : S_TEXT/UTF8
Codec ID/Info : UTF-8 Plain Text
Duration : 1 h 53 min
Bit rate : 75b/s
Count of elements : 1355
Stream size : 62.9 KiB (0%)
Title : Ukrainian full Blu-Ray CEE
Language : Ukrainian
Default : No
Forced : No

Text #6
ID : 15
Format : UTF-8
Codec ID : S_TEXT/UTF8
Codec ID/Info : UTF-8 Plain Text
Duration : 1 h 18 min
Bitrate : 1b/s
Count of elements : 24
Stream size : 593 Bytes (0%)
Title : English forced
Language : English
Default : No
Forced : No

Text #7
ID : 16
Format : UTF-8
Codec ID : S_TEXT/UTF8
Codec ID/Info : UTF-8 Plain Text
Duration : 1 h 53 min
Bit rate : 54b/s
Count of elements : 1628
Stream size : 45.1 KiB (0%)
Title : English full
Language : English
Default : No
Forced : No

text#8
ID : 17
Format : UTF-8
Codec ID : S_TEXT/UTF8
Codec ID/Info : UTF-8 Plain Text
Duration : 1 h 54 min
Bit rate : 66b/s
Count of elements : 2054
Stream size : 55.5 KiB (0%)
Title : English SDH
Language : English
Default : No
Forced : No

Text #9
ID : 18
Format : UTF-8
Codec ID : S_TEXT/UTF8
Codec ID/Info : UTF-8 Plain Text
Duration : 1 h 54 min
Bit rate : 91b/s
Count of elements : 2054
Stream size : 77.0 KiB (0%)
Title : SDH Colored
Language : English
Default : No
Forced : No

Text #10
ID : 19
Format : UTF-8
Codec ID : S_TEXT/UTF8
Codec ID/Info : UTF-8 Plain Text
Duration : 1 h 51 min
Bit rate : 115b/s
Count of elements : 1933
Stream size : 93.7 KiB (0%)
Title : Commentary by Director Ruben Fleischer
Language : English
Default : No
Forced : No

Menu
00:00:00.000 : en:Chapter 01
00:08:16.370 : en:Chapter 02
00:12:23.367 : en:Chapter 03
00:18:56.844 : en:Chapter 04
00:24:30.218 : en:Chapter 05
00:31:34.851 : en:Chapter 06
00:36:14.463 : en:Chapter 07
00:41:26.650 : en:Chapter 08
00:48:04.923 : en:Chapter 09
00:53:18.236 : en:Chapter 10
00:59:13.007 : en:Chapter 11
01:05:53.199 : en:Chapter 12
01:12:02.943 : en:Chapter 13
01:17:32.898 : en:Chapter 14
01:25:00.386 : en:Chapter 15
01:34:41.842 : en:Chapter 16

Leave a Reply

Your email address will not be published.