foobar2000 1.5.5 / Dynamic Range Meter (DR) 1.1.1
Report date: 2021-09-22 11:34:08

————————————————– ——————————
Analysis: MakSim / Difficult age
————————————————– ——————————

DR Peaks RMS Track duration
————————————————– ——————————
DR10 -0.17 dB -11.95 dB 3:44 01-Hard age
DR11 -0.07 dB -13.22 dB 3:30 02 – Breathing centimeters
DR11 -0.07 dB -12.90 dB 3:18 03-Tenderness
DR12 -0.10 dB -13.18 dB 4:11 04-Lolita
DR11 -0.09 dB -12.73 dB 3:24 05-Sleep
DR11 -0.14 dB -12.83 dB 3:13 06-Become the wind
DR12 -0.09dB -14.53dB 4:22 07-Let go
DR11 -0.32 dB -13.06 dB 5:13 08-Pam-param
DR11 -0.17 dB -14.29 dB 4:03 09-Did you know
DR11 -0.09dB -12.31dB 3:11 10cm Breath (Remix)
DR11 -0.09 dB -14.10 dB 3:02 11-Hard Age (Slow Version)
DR13 -0.11 dB -14.66 dB 4:35 12-Tenderness (Remix Acid-Jazz)
DR12 -0.28dB -17.51dB 1:35 13-Milk Sky
DR11 -0.10 dB -12.38 dB 3:51 14-Let go (Remix)
DR11 -0.07 dB -13.21 dB 3:28 15-Tenderness (R’n’B Remix)
————————————————– ——————————

Number of tracks: 15
Real DR values: DR11

Frequency: 44100 Hz
Channels: 2
Bit depth: 16
Bitrate: 670 kbps
Codec: FLAC
================================================= ==============================

———————-

DON’T MODIFY THIS FILE

———————-

PERFORMER: auCDtect Task Manager, ver. 1.6.0 RC1 build 1.6.0.1
Copyright (c) 2008-2010 y-soft. All rights reserved
http://y-soft.org

ANALYZER: auCDtect: CD records authenticity detector, version 0.8.2
Copyright (c) 2004 Oleg Bernhardt. All rights reserved.
Copyright (c) 2004 Alexander Djourik. All rights reserved.

FILE: 01. A Difficult Age.flac
Size: 19144653 Hash: D949610A895EB48E43AE3E05FAFE7BE9 Accuracy: -m8
Conclusion: CDDA 100%
Signature: A8812ACA5096CB1CB15BCF52C914746C434337E2

FILE: 02. Respiratory Dimension.flac
Size: 18029814 Hash: D2F808BB817723FDD82969DBC4820CE1 Accuracy: -m8
Conclusion: CDDA 100%
Signature: 648807AC531BA2ADE7716F893C9E86FFAB688789

FILE: 03. Tenderness.flac
Size: 17241599 Hash: 5EFE9BD15FBF9F52C0B40D75A5A2613A Accuracy: -m8
Conclusion: CDDA 100%
Signature: 142D9BF6D7A313290F3FA8905C090F4FC69683AF

FILE: 04. Lolita.flac
Size: 21389234 Hash: C41A8FA4EEC34DEC1AAA2AAF5909BED8 Accuracy: -m8
Conclusion: CDDA 100%
Signature: 54111878845DE28BF55E6225F7C324CB92739700

FILE: 05. Dream.flac
Size: 17607819 Hash: 163C0EF58255FA93B1EB2D22E5C26D20 Accuracy: -m8
Conclusion: CDDA 100%
Signature: BEFE271C820D09E77E3562767DA4A1B6AC58FC92

FILE: 06. The Wind.flac
Size: 15660252 Hash: 49ED342EF23C70F0FAA57D589DC7DC4B Accuracy: -m8
Conclusion: CDDA 100%
Signature: 37AA1FC86AAAB388C6CB5A7C838639E019179FFB

FILE: 07. I’m Away.flac
Size: 20872717 Hash: 5FE30EAF6BF64C796F951120C2E43907 Accuracy: -m8
Conclusion: CDDA 100%
Signature: 0BF2F30935C4AC99664346058A40314A446B5F69

FILE: 08. Reminder.flac
Size: 28135174 Hash: 2B881D246992C33CBC5376EFE4881C24 Accuracy: -m8
Conclusion: CDDA 100%
Signature: 595264F965626038E662297D1844FF4ECD13D3BB

FILE: 09. Do You Know.flac
Size: 21042150 Hash: 9A05AB62540E7C5A526CA54E3B5EBF14 Accuracy: -m8
Conclusion: CDDA 100%
Signature: 5A04B5F54BAC81EEB6FC7B3BBC9E324039BC43DC

FILE: 10. Centimeters of Breath (Remix).flac
Size: 16667627 Hash: 18C3F269D0EB57A90E0C1F3871BE882C Accuracy: -m8
Conclusion: CDDA 100%
Signature: E6B4C5007A84F7FCF4C6D39D432FB64B3605D91D

FILE: 11. Difficult Age (Slow Version).flac
Size: 15310351 Hash: 8B09694D1DF27871ABDE62773A15AA15 Accuracy: -m8
Conclusion: CDDA 100%
Signature: 8D4AA38E578C3A3B63F3BCCB9A6C8387AAB2E0B0

FILE: 12. Tenderness (Remix Acid-Jazz).flac
Size: 23703965 Hash: C386754263D92B2874423AA153F08BFA Accuracy: -m8
Conclusion: CDDA 100%
Signature: E6A40798E6A5E3D6B5C47854A6493FCB3A7B212D

FILE: 13. Milky Sky.flac
Size: 7922711 Hash: 62EEA928AA42E5830B10F6CC3E5548BD Accuracy: -m8
Conclusion: CDDA 100%
Signature: 56524B4B3BE765179C51CB75E992D5EA2AA4C9DA

FILE: 14. Let It Go (Remix).flac
Size: 19853893 Hash: 77C73735EA07D7CB798783ED61DACFB8 Accuracy: -m8
Conclusion: CDDA 100%
Signature: 8B38FD469552CB45F7FD500261815241BF358FB1

FILE: 15. Tenderness (R’n’B Remix).flac
Size: 17871997 Hash: A9B3CD9BAB950C1D852CE0FE0DB9352E Accuracy: -m8
Conclusion: CDDA 99%
Signature: 9A9FB4A845BC97FF0F0F7143655060FBA4799582

Leave a Reply

Your email address will not be published.